#TITLE:MAXX UNLIMITED;
#SUBTITLE:VROFL;
#ARTIST:Z;
#TITLETRANSLIT:;
#SUBTITLETRANSLIT:;
#ARTISTTRANSLIT:;
#CREDIT:;
#BANNER:MAXX UNLIMITED.png;
#BACKGROUND:MAXX UNLIMITED-bg.png;
#LYRICSPATH:;
#CDTITLE:kykaCD.png;
#MUSIC:MaxX Unlimited long.mp3;
#OFFSET:-6.200;
#SAMPLESTART:95.970;
#SAMPLELENGTH:12.000;
#SELECTABLE:YES;
#BPMS:0.000=310.040,576.000=310.039,616.000=310.030,618.000=310.039;
#STOPS:236.000=0.780
,248.000=0.780
,292.000=0.760
,304.000=0.760
,348.000=0.780
,356.500=0.760
;
#BGCHANGES:;
// cache tags:
#FIRSTBEAT:0.000;
#LASTBEAT:894.000;
#SONGFILENAME:Songs/nhac/MaxX Unlimited [Long Version]/MaxX Unlimited Maxed Out.sm;
#HASMUSIC:1;
#HASBANNER:1;
#MUSICLENGTH:185.635;
// end cache tags

//---------------dance-single - difficulty 100----------------
#NOTES:
     dance-single:
     difficulty 100:
     Beginner:
     15:
     1.000,1.000,1.000,0.232,1.000,1550.000,685.000,43.000,818.000,47.000:
1000
0100
0010
0001
1MM1
0000
0100
0010
,
M11M
11MM
MM11
M11M
,
1000
0100
0010
0001
1MM1
0000
0001
1000
,
1MM1
1MM1
11MM
MM11
,
MM1M
0100
0001
1000
M11M
0000
0010
0100
,
1MM1
M11M
1MM1
M11M
,
1MMM
1000
1000
0000
0001
0001
0001
0000
,
M11M
MM1M
MM1M
M11M
M11M
M1MM
M1MM
M11M
,
1M00
01M0
001M
M001
1M00
001M
01M0
M001
,
1MM1
M00M
11MM
MM00
M11M
0MM0
MM11
00MM
,
10MM
M10M
M01M
0MM1
M01M
M10M
1MM0
M01M
,
1MM1
M00M
M11M
0MM0
11MM
MM00
MM11
00MM
,
1M0M
M10M
M01M
0MM1
0MM1
M01M
M10M
1MM0
,
11MM
MMMM
M11M
MMMM
MM11
MMMM
M11M
MMMM
,
1MM0
M10M
M01M
0MM1
1MM0
M10M
M01M
0MM1
,
M11M
0MM0
0MM0
0MM0
0110
MMMM
MMMM
MMMM
1001
M00M
M00M
M00M
1001
0000
0000
0000
,
1MMM
0100
MMM1
0010
M1MM
0001
MM1M
1000
,
M11M
MM00
MM00
MM00
MM00
MM00
MM00
MM00
1100
0MM0
0MM0
0MM0
0MM0
0MM0
0MM0
0MM0
0110
00MM
00MM
00MM
00MM
00MM
00MM
00MM
0011
MMMM
MMMM
MMMM
MMMM
MMMM
MMMM
MMMM
,
1000
0100
0010
0001
0100
0010
0001
1000
,
11MM
M11M
MM11
1MM1
,
2002
0000
0000
0000
,
3223
0000
0000
0000
,
1330
00MM
00MM
00MM
01MM
00MM
00MM
00MM
10MM
00MM
00MM
00MM
01MM
00MM
00MM
00MM
11MM
0000
0000
0000
0000
0000
0000
0000
0000
0000
0000
0000
0000
0000
0000
0000
MM10
MM00
MM00
MM00
MM01
MM00
MM00
MM00
MM10
MM00
MM00
MM00
MM01
MM00
MM00
MM00
0011
0000
0000
0000
0000
0000
0000
0000
0000
0000
0000
0000
0000
0000
0000
0000
,
1000
0010
0100
0001
1000
0100
0001
0010
1000
0100
0010
0001
1000
0100
0010
1000
,
1001
1000
0110
0001
1010
1000
0011
0100
,
0011
1000
1001
0100
0011
1000
1001
0100
,
0110
0001
1010
0100
1001
0010
0110
1000
,
1100
0010
1100
0001
0101
0010
1001
1000
,
0101
1000
0110
0010
1001
0010
0110
0001
,
1001
0100
1010
0001
1100
0100
0011
1000
,
1001
0100
0011
1000
1100
0001
0011
0100
,
1010
0001
1100
0100
1010
0001
0011
0100
,
1010
0001
1100
0010
1001
0001
0110
0010
,
1001
0001
0110
0010
0101
1000
0101
0010
,
1001
1000
0110
0010
1001
1000
0110
0010
,
1001
0100
0101
0010
0101
1000
0110
1000
,
2200
0000
0000
0000
,
3322
0000
0000
0000
,
1033
0100
1000
0100
1000
0100
1000
0100
1000
0000
0000
0000
0000
0000
0000
0000
0010
0001
0010
0001
0010
0001
0010
0001
0010
0000
0000
0000
0000
0000
0000
0000
,
1000
0001
0010
0100
0001
1000
0100
0010
0001
1000
0100
0010
1000
0001
0100
0010
1000
0001
0100
1000
0001
0010
0100
1000
0001
0100
0010
1000
0001
0100
0010
1000
,
1001
0000
0000
1001
0000
0000
0000
0000
,
0000
0000
0000
0000
,
0110
0000
0000
0110
0000
0000
0000
0000
,
0000
0000
0000
0000
,
1001
0000
0000
1001
0000
0000
0000
0000
,
0000
0000
0110
1001
,
0000
0110
0000
0000
0000
0000
0000
0000
,
1000
0001
1000
0001
1000
0100
0010
0100
0010
0000
0000
0000
0000
0000
0000
0000
,
0110
0000
0000
0110
0000
0000
0000
0000
,
1001
0000
0000
1001
0000
0000
0000
0000
,
1100
0000
0000
1100
0000
0000
0000
0000
,
0110
0000
0000
0110
0000
0000
0000
0000
,
0011
0000
0000
0011
0000
0000
0000
0000
,
1001
0000
0000
0110
0000
0000
0000
0000
,
1001
0000
1001
0000
0000
0110
0000
0000
,
0000
0000
0000
0000
,
1100
0110
1001
0110
,
1100
0011
1100
0110
,
1001
1100
0011
1010
,
1001
1001
0000
0000
0000
0000
0000
0000
0000
0000
0000
0000
0000
0000
0000
0000
0110
0000
0000
0000
0000
0000
0000
0000
0000
0000
0000
0000
0000
0000
0000
0000
1100
0000
0000
0000
0000
0000
0000
0000
0000
0000
0000
0000
0000
0000
0000
0000
0011
0000
0000
0000
0000
0000
0000
0000
0000
0000
0000
0000
0000
0000
0000
0000
,
0110
1100
0011
1010
,
0101
0110
1001
0110
,
1001
0000
0000
1MM1
M00M
0000
0000
0000
0000
0000
0000
0000
0000
0000
0000
0000
0000
0000
0000
0000
0000
0000
0000
0000
0000
0000
0000
0000
0000
0000
0000
0000
0000
0000
0000
0000
0000
0000
0000
0000
0000
0000
0000
0000
0000
0000
0000
0000
1001
0000
0000
0000
0000
0000
0000
0000
0000
0000
0000
0000
0000
0000
0000
0000
0000
0000
0000
0000
0000
0000
0000
0000
0000
0000
0000
0000
0000
0000
0000
0000
0000
0000
0000
0000
0000
0000
0000
0000
0000
0000
0000
0000
0000
0000
0000
0000
1100
0000
0000
0000
0000
0000
0000
0000
0000
0000
0000
0000
0000
0000
0000
0000
0000
0000
0000
0000
0000
0000
0000
0000
0011
0000
0000
0000
0000
0000
0000
0000
0000
0000
0000
0000
0000
0000
0000
0000
0000
0000
0000
0000
0000
0000
0000
0000
1100
0000
0000
0000
0000
0000
0000
0000
0000
0000
0000
0000
0000
0000
0000
0000
0000
0000
0000
0000
0000
0000
0000
0000
0011
0000
0000
0000
0000
0000
0000
0000
0000
0000
0000
0000
0000
0000
0000
0000
0000
0000
0000
0000
0000
0000
0000
0000
,
1100
0000
0110
0000
0011
1100
0011
1100
,
0011
0000
0110
0000
1001
0110
1001
0110
,
1100
0011
1100
0011
1001
0000
1001
0000
,
0110
0000
1100
0110
0011
0110
1100
0000
,
0110
0000
0011
0110
1100
0110
0011
0000
,
0110
1001
0110
1001
0110
1001
0110
1001
,
0110
0000
0000
0000
,
1000
0100
0010
0001
0010
0100
1000
0100
,
0010
0001
1000
0100
0010
0001
1000
0100
,
0010
0001
0010
0100
1000
0100
0010
0001
,
1001
0000
0000
1001
M00M
0000
0000
0000
0000
0000
0000
0000
0000
0000
0000
0000
0000
0000
0000
0000
0000
0000
0000
0000
0100
0000
0000
0000
0000
0000
0000
0000
0000
0000
0000
0000
0000
0000
0000
0000
0000
0000
0000
0000
0000
0000
0000
0000
0010
0000
0000
0000
0000
0000
0000
0000
0000
0000
0000
0000
0000
0000
0000
0000
0000
0000
0000
0000
0000
0000
0000
0000
1000
0000
0000
0000
0000
0000
0000
0000
0000
0000
0000
0000
0000
0000
0000
0000
0000
0000
0000
0000
0000
0000
0000
0000
0001
0000
0000
0000
0000
0000
0000
0000
0000
0000
0000
0000
0000
0000
0000
0000
0000
0000
0000
0000
0000
0000
0000
0000
0100
0000
0000
0000
0000
0000
0000
0000
0000
0000
0000
0000
0000
0000
0000
0000
0000
0000
0000
0000
0000
0000
0000
0000
0010
0000
0000
0000
0000
0000
0000
0000
0000
0000
0000
0000
0000
0000
0000
0000
0000
0000
0000
0000
0000
0000
0000
0000
1000
0000
0000
0000
0000
0000
0000
0000
0000
0000
0000
0000
0000
0000
0000
0000
0000
0000
0000
0000
0000
0000
0000
0000
,
0001
0100
0010
0001
1000
0100
0010
0001
,
1000
0100
1000
0100
0010
0001
0010
0001
,
1001
0000
0000
1001
M00M
0000
0000
0000
0000
0000
0000
0000
0000
0000
0000
0000
0000
0000
0000
0000
0000
0000
0000
0000
1001
0000
0000
0000
0000
0000
0000
0000
0000
0000
0000
0000
0000
0000
0000
0000
0000
0000
0000
0000
0000
0000
0000
0000
1100
0000
0000
0000
0000
0000
0000
0000
0000
0000
0000
0000
0000
0000
0000
0000
0000
0000
0000
0000
0000
0000
0000
0000
0110
0000
0000
0000
0000
0000
0000
0000
0000
0000
0000
0000
0000
0000
0000
0000
0000
0000
0000
0000
0000
0000
0000
0000
0011
0000
0000
0000
0000
0000
0000
0000
0000
0000
0000
0000
0000
0000
0000
0000
0000
0000
0000
0000
0000
0000
0000
0000
1001
0000
0000
0000
0000
0000
0000
0000
0000
0000
0000
0000
0000
0000
0000
0000
0000
0000
0000
0000
0000
0000
0000
0000
1100
0000
0000
0000
0000
0000
0000
0000
0000
0000
0000
0000
0000
0000
0000
0000
0000
0000
0000
0000
0000
0000
0000
0000
0110
0000
0000
0000
0000
0000
0000
0000
0000
0000
0000
0000
0000
0000
0000
0000
0000
0000
0000
0000
0000
0000
0000
0000
,
0011
1001
1100
0110
0011
1001
1100
0110
,
1001
0011
0110
1100
1001
0011
0110
1100
,
1001
0011
0110
1100
0110
0011
1100
0110
,
1100
0011
0110
0011
0110
1001
0110
1001
,
1100
0011
1010
0101
1010
0101
1100
0011
,
1100
0011
1010
0101
0110
1001
0110
1001
,
1100
0011
1010
0101
0011
1100
0110
1001
,
1100
0011
0110
1001
1100
0011
0110
1001
,
1100
0011
1010
0101
0110
1001
1100
0011
,
0110
1001
0110
1100
0011
0110
1001
0110
,
1001
1001
0000
0000
0000
0000
0000
0000
0110
0000
0000
0000
0000
0000
0000
0000
1100
0000
0000
0000
0000
0000
0000
0000
0011
0000
0000
0000
0000
0000
0000
0000
0110
0000
0000
0000
0000
0000
0000
0000
1100
0000
0000
0000
0000
0000
0000
0000
0011
0000
0000
0000
0000
0000
0000
0000
0110
0000
0000
0000
0000
0000
0000
0000
,
1001
0110
1100
0110
0011
0110
1100
0110
,
1001
0000
0000
0000
0000
0000
0000
0000
0110
0110
0000
0000
0000
0000
0000
0000
1100
0000
0000
0000
0000
0000
0000
0000
0011
0000
0000
0000
0000
0000
0000
0000
0110
0000
0000
0000
0000
0000
0000
0000
1100
0000
0000
0000
0000
0000
0000
0000
0011
0000
0000
0000
0000
0000
0000
0000
1010
0000
0000
0000
0000
0000
0000
0000
,
0101
1100
0011
1010
0101
0110
1001
0110
,
1001
1100
0011
1100
0011
1100
0011
1010
,
0101
1010
0101
1010
0101
1010
0101
0110
,
1001
0110
1001
1100
0011
1010
0101
0110
,
1001
1100
0011
1010
0101
0110
1001
1100
,
0011
1010
0101
0011
1100
1010
0101
0011
,
1100
1010
0101
0011
1100
1010
0101
1010
,
0101
0011
1100
0110
0101
1010
0110
1001
,
1100
0011
1010
0101
0110
1001
0110
1001
,
1100
1100
1100
1100
1100
1100
1100
1100
,
1100
0110
0110
0110
0110
0110
0110
0110
,
0110
0011
0011
0011
0011
0011
0011
0011
,
0011
1001
1001
1001
1001
1001
1001
1001
,
1001
0101
0101
0101
0101
0101
0101
0101
,
0101
0110
0110
0110
0110
0110
0110
0110
,
0110
1010
1010
1010
1010
1010
1010
1010
,
2002
0000
0000
0000
,
0000
0000
0000
0000
,
3223
0000
0000
0000
,
2332
0000
3223
0000
,
2332
0000
0000
0000
,
0000
0000
0000
0000
,
3223
0000
0000
0000
,
2332
0000
3223
0000
,
2332
0000
0000
0000
,
0000
0000
0000
0000
,
3223
0000
0000
0000
,
2332
0000
3223
0000
,
2332
0000
0000
0000
,
3223
0000
0000
0000
,
2332
0000
3223
0000
,
2332
0000
0000
0000
,
3113
0000
0000
0000
1001
0000
0000
0000
0110
0000
0000
0000
1001
1100
0110
0011
,
1001
0000
0000
0000
0011
0000
0000
0000
1100
0000
0000
0000
0110
1001
0110
1001
,
0110
0000
0000
0000
1100
0000
0000
0000
0011
0000
0000
0000
0110
1100
0110
1100
,
0110
0000
0000
0000
0011
0000
0000
0000
0110
0000
0000
0000
0011
0110
0011
0110
,
0011
1100
0011
0110
,
1001
1100
0011
1010
,
0101
0011
1100
0101
,
0110
0000
0000
0000
0000
0000
0000
0000
0000
0000
0000
0000
0000
0000
0000
0000
0000
0000
0000
0000
0000
0000
0000
0000
0000
0000
0000
0000
0000
0000
0000
0000
0000
0000
0000
0000
0000
0000
0000
0000
0000
0000
0000
0000
0000
0000
0000
0000
1001
0000
0000
0000
0000
0000
0000
0000
0000
0000
0000
0000
0000
0000
0000
0000
0000
0000
0000
0000
0000
0000
0000
0000
0000
0000
0000
0000
0000
0000
0000
0000
0000
0000
0000
0000
0000
0000
0000
0000
0000
0000
0000
0000
0000
0000
0000
0000
0110
0000
0000
0000
0000
0000
0000
0000
1100
0000
0000
0000
0000
0000
0000
0000
0011
0000
0000
0000
0000
0000
0000
0000
0110
0000
0000
0000
0000
0000
0000
0000
1100
0000
0000
0000
0000
0000
0000
0000
0011
0000
0000
0000
0000
0000
0000
0000
0110
0000
0000
0000
0000
0000
0000
0000
1001
0000
0000
0000
0000
0000
0000
0000
0110
0000
0000
0000
0000
0000
0000
0000
1100
0000
0000
0000
0000
0000
0000
0000
0011
0000
0000
0000
0000
0000
0000
0000
0110
0000
1001
0000
0000
0000
0000
0000
,
1001
MMMM
M1MM
MMMM
M11M
MMMM
MMM1
MMMM
11MM
MMMM
MM1M
MMMM
MM11
MMMM
M1MM
MMMM
,
MM11
0000
MMMM
0000
M1MM
0000
MMMM
0000
MM11
0000
MMMM
0000
M1MM
0000
MMMM
0000
MM11
0000
0MMM
0000
0100
0000
0000
0000
101M
000M
000M
000M
010M
000M
000M
000M
,
101M
000M
000M
000M
010M
000M
000M
000M
101M
000M
000M
000M
010M
000M
000M
000M
101M
000M
000M
000M
010M
000M
000M
00M0
10M1
00M0
00M0
00M0
01M0
00M0
00M0
00M0
,
10M1
00M0
00M0
00M0
01M0
00M0
00M0
00M0
10M1
00M0
00M0
00M0
01M0
00M0
00M0
00M0
10M1
00M0
00M0
00M0
0M10
0M00
0M00
0M00
1M01
0M00
0M00
0M00
0M10
0M00
0M00
0M00
,
1M01
0M00
0M00
0M00
0M10
0M00
0M00
0M00
1M01
0M00
0M00
0M00
0M10
0MM0
0MM0
0MM0
1MM1
MMMM
MMMM
MMMM
0100
MMMM
MMMM
0M0M
1M1M
000M
000M
000M
010M
000M
000M
000M
,
101M
000M
000M
000M
010M
000M
000M
000M
101M
000M
000M
000M
010M
000M
000M
000M
101M
000M
000M
000M
010M
000M
000M
000M
101M
000M
000M
000M
010M
000M
000M
M000
,
M011
M000
M000
M000
M100
M000
M000
M000
M011
M000
M000
M000
M100
M000
M000
M000
M011
M000
M000
M000
M100
M000
M000
M000
M011
M000
M000
M000
M100
M000
M000
M000
,
M011
M000
M000
M000
M100
MM00
MM00
MM00
MM11
MM00
MM00
MM00
MM10
MM00
MM00
MM00
M101
0000
M000
M000
0010
0000
0000
M000
M101
0000
M000
M000
M010
M000
M000
M000
,
M101
M000
M000
M000
M010
M000
M000
M000
M101
M000
M000
0000
M010
M000
M000
M000
M101
M000
M000
M000
0010
0000
0000
0000
1100
0000
0000
0000
0010
0000
0000
0000
,
1100
0010
1100
0010
1100
0010
1100
0010
,
1100
0010
1001
0100
1001
0010
1001
0100
,
1001
0010
1001
0100
1001
0010
1001
0100
,
1001
0010
1100
0010
1100
0010
0101
0010
,
0101
0000
0000
0000
0000
0000
0000
0000
1000
0000
0000
0000
0000
0000
0000
0000
0110
0000
0000
0000
0000
0000
0000
0000
0001
0000
0000
0000
0000
MMMM
MMMM
MMMM
M11M
MMMM
MMMM
MMMM
MMMM
MMMM
MMMM
MMMM
11MM
MMMM
MMMM
MMMM
MMMM
MMMM
MMMM
MMMM
M11M
MMMM
MMMM
MMMM
MMMM
MMMM
MMMM
MMMM
MM11
MMMM
MMMM
MMMM
MMMM
MMMM
MMMM
MMMM
,
1MM1
1000
0100
0010
0001
1000
0100
0010
,
0001
0010
0100
1000
0001
0010
0100
1000
,
1111
1000
0100
0010
0001
1000
0100
0010
,
0001
1000
0100
0010
0001
1000
0100
0010
,
0001
1000
0100
0010
0001
1000
0100
0010
,
0001
1000
0100
0010
0001
0010
0100
1000
,
0001
0010
0100
1000
0001
0010
0100
1000
,
0001
0010
0100
1000
0001
0010
0100
1000
,
0001
0010
0100
1000
0001
0010
0100
1000
,
0001
0010
0100
1000
0001
0010
0100
1000
,
0100
0010
0001
1000
0100
0010
0001
1000
,
0100
0010
0001
1000
0100
0010
1000
0001
,
0010
0100
0001
1000
0100
0010
0001
1000
,
0001
1000
0001
1000
0100
0010
0200
0000
,
0000
0000
0000
0000
,
0000
0000
0000
0000
,
0000
0000
0000
0000
,
0000
0000
0000
0300
,
1000
0100
0001
0010
0100
0001
1000
0100
0010
1000
0001
0010
,
0100
0001
1000
0100
0010
1000
0001
0100
0010
1000
0001
0100
,
0010
1000
0001
0100
0010
0001
1000
0100
1000
0010
0100
0010
,
0001
0100
0001
0100
0010
0100
0001
1100
0110
0011
0110
1100
,
1010
0101
0011
1100
1010
0101
0011
1100
1000
0001
0010
0100
,
0001
1000
0100
0010
0001
1000
0100
0010
1000
0001
0100
0010
,
1000
0001
0100
0010
0001
1000
0100
0010
1000
0001
0010
0100
,
0001
1000
0100
0010
0001
1000
0100
0010
1000
0001
0100
0010
,
1000
0001
0100
0010
0001
1000
0100
0010
0001
1000
0100
0010
,
0001
0100
1000
0001
0010
0001
0100
1000
0100
0010
0001
0010
,
0100
1000
0001
0100
0010
1000
0100
0001
0010
0001
1000
0100
,
0010
1000
0001
0100
0010
0001
1000
0100
0010
0001
0110
1100
,
0011
0110
1100
1010
0101
0011
1100
1010
0101
0110
1001
1100
,
0011
1010
0101
0011
1100
1010
0101
1010
0101
0110
1000
0100
,
0010
0001
0010
0100
1000
0001
0100
0010
1000
0001
0100
1000
,
0010
0100
1000
0010
1000
0100
0010
1000
0100
0010
1000
0100
,
0010
1000
0100
0010
1000
0100
0010
0001
0010
0100
0001
0010
,
0100
0001
0010
0100
0001
0010
0100
0001
0010
0100
0001
0010
,
0100
0001
0010
0100
0001
0010
0100
0001
0010
0100
0001
0010
,
0100
1000
0010
0001
1000
0010
0001
1000
0010
0001
1000
0010
,
0001
1000
0010
0001
1000
0010
0001
1000
0010
0001
1000
0010
,
0001
1000
0010
0001
1000
0010
0001
1000
0010
0001
1000
0010
,
0001
1000
0010
0001
1000
0010
0001
1000
0010
0001
1000
0010
,
0001
1000
0010
0001
1000
0010
0001
1000
0010
0001
1000
0010
,
0001
1000
0010
0001
1000
0010
0001
1000
0010
0001
1000
0010
,
0001
1000
0100
0001
1000
0100
0001
1000
0100
0001
1000
0100
,
0001
1000
0100
0001
1000
0100
0001
0000
0100
0001
1000
0100
,
0001
1000
0100
0001
1000
0100
0001
1000
0100
0001
1000
0100
,
0001
1000
0100
0001
1000
0100
0001
1000
0100
0001
1000
0100
,
0010
0001
1000
0100
0010
0001
0010
0100
1000
0001
0010
0100
,
1000
0001
0010
0001
0100
1000
0001
0010
0100
0001
1000
0100
,
1000
0100
0010
0001
1000
0100
0010
1000
0100
0010
0001
0010
,
1001
0000
0000
0110
0000
0000
0000
0000
,
1100
0000
0000
0011
0000
0000
0000
0000
,
0011
0000
0000
1100
0000
0000
0000
0000
,
1000
0100
0010
0001
1000
0100
0010
0001
0010
0100
1000
0001
0010
0100
0001
1000
0110
0000
0000
0000
0000
0000
0000
0000
0000
0000
0000
0000
0000
0000
0000
0000
,
1001
0000
0000
0110
0000
0000
0000
0000
,
1100
0000
0000
0011
0000
0000
0000
0000
,
0110
0000
0000
1001
0000
0000
0000
0000
,
1000
0100
0010
0001
1000
0100
0010
0001
0010
0100
1000
0001
0010
0100
1000
0100
0010
0001
0010
0100
1000
0001
0010
0100
1001
0000
0000
0110
0000
0000
1001
0000
0000
0110
0000
0000
0110
0000
0000
0110
0000
0000
1001
0000
0000
0110
0000
0000
,
0110
0000
0000
1001
0000
0000
0000
0000
,
1001
0000
0000
0110
0000
0000
0000
0000
,
1001
0000
0000
1001
0000
0000
0110
0000
,
1001
0110
0000
0000
,
1100
0000
0000
0110
0000
0000
0000
0000
,
0011
0000
0000
0110
0000
0000
0000
0000
,
0011
0000
0000
0110
0000
0000
1100
0000
,
0011
1001
0000
0000
,
0011
0000
0000
1001
0000
0000
0000
0000
,
0000
0000
0000
0000
,
0011
0000
0000
0110
0000
0000
0000
0000
,
1100
0000
0000
0110
0000
0000
0000
0000
,
0011
0000
0000
0110
0000
0000
0000
0000
,
1001
0000
0000
0110
0000
0000
0000
0000
,
1100
0000
0110
0000
0000
0011
0000
0000
,
0000
0000
0000
0000
1001
0000
0000
0011
,
0000
0000
0000
0000
1000
0100
0010
0001
1000
0100
0010
0001
1000
0100
0010
0001
0000
0000
0000
0000
0000
0000
0000
0000
0000
0000
0000
0000
0000
0000
0000
0000
,
0001
0010
0100
1000
0001
0010
0100
1000
0001
0010
0100
1000
0001
0010
0100
1000
0001
0010
0100
1000
0001
0010
0100
1000
0001
0010
0100
1000
0001
0010
0100
1000
,
0001
0000
0000
0000
,
1000
0100
0010
0001
0010
0100
1000
0100
0010
0001
0010
0100
1000
0001
0100
0010
0100
0000
0000
0000
0000
0000
0000
0000
0000
0000
0000
0000
0000
0000
0000
0000
,
0000
0000
0000
0000
,
1111
1111
1111
1111
1111
1111
1111
1111
1111
1111
1111
1111
1111
1111
1111
1111
1111
1111
1111
1111
1111
1111
1111
1111
1111
0000
0000
0000
0000
0000
0000
0000
0000
0000
0000
0000
0000
0000
0000
0000
0000
0000
0000
0000
0000
0000
0000
0000
;
